#TITLE:Senketsu no Chikai;
#SUBTITLE:- Magipoka Opening;
#ARTIST:Yousei Teikoku;
#TITLETRANSLIT:;
#SUBTITLETRANSLIT:;
#ARTISTTRANSLIT:;
#CREDIT:Tweety;
#BANNER:pokan-logo.jpg;
#BACKGROUND:pokan-bg.jpg;
#LYRICSPATH:trance.lrc;
#CDTITLE:cdtitle02.png;
#MUSIC:MagiPokanOP.mp3;
#OFFSET:0.040;
#SAMPLESTART:39.951;
#SAMPLELENGTH:12.000;
#SELECTABLE:YES;
#BPMS:0.000=90.020,20.000=180.040;
#STOPS:;
#BGCHANGES:1.500=MagiPokanOP.avi=1.000=0=0=1,
252.000=pokan-bg.jpg=1.000=1=0=1,
99999=-nosongbg-=1.000=0=0=0 // don't automatically add -songbackground-
;
// cache tags:
#FIRSTBEAT:2.000;
#LASTBEAT:252.000;
#SONGFILENAME:songs/Otaku's Dream 3rd Anime Mix/[Tweety3187] Senketsu no Chikai - Magipoka OP/trance.sm;
#HASMUSIC:1;
#HASBANNER:1;
#MUSICLENGTH:92.264;
// end cache tags

//---------------dance-single - ----------------
#NOTES:
     dance-single:
     :
     Hard:
     10:
     1.000,1.000,1.000,0.152,0.108,453.000,185.000,14.000,0.000,0.000:
0000
0000
0000
0000
0002
0000
0000
0003
,
0100
0000
0000
0010
0000
0000
1000
0000
2000
0000
0000
0000
3000
0000
0010
0000
,
0100
0000
0000
0010
0000
0000
0001
0000
0002
0000
0000
0000
0003
0000
0000
0000
,
0000
0000
0010
0100
2000
0000
3020
0000
,
0230
0000
0000
0000
0000
0000
0320
0000
0000
0000
0000
0000
0000
0000
0000
0000
0000
0000
0000
0000
0030
0000
0000
0000
0000
0000
0001
0010
0100
1000
0100
0010
,
1001
0011
1000
0110
1010
0001
1100
1100
,
0011
0000
1000
0001
0110
0000
1001
0000
0100
0000
0011
0000
0101
0000
0001
0000
,
1010
0110
0100
0011
1001
0100
0110
1010
,
1001
0000
0010
1000
0101
0000
0011
0000
1000
0000
0101
0000
1010
0000
0100
0000
,
1001
1001
0010
0110
1010
0001
0110
0011
,
1100
0000
0010
0001
1100
0000
0011
0000
1000
0000
0011
0000
0101
0000
0010
0000
,
1010
1100
0001
0011
0101
1000
0110
1010
,
1001
0000
0000
1001
0000
0000
1001
0000
,
1001
0000
0101
0000
0010
0100
1001
0000
,
0010
0001
1100
0000
0000
0011
0011
0000
,
1100
0000
0110
0000
0001
0010
1001
0000
,
1000
0100
1010
0000
0000
0011
1100
0000
,
1010
0000
0110
0000
1000
0001
0110
0000
,
1001
1001
0101
0000
0000
0110
0110
0000
,
1001
0000
1010
0000
0000
1010
0101
0000
,
1010
1010
0011
1000
0101
1000
0110
1000
,
0011
1000
0100
1000
0110
0001
0100
0001
,
1010
0001
0010
0110
1000
0100
0011
1000
,
0101
0010
0100
0001
1010
0100
0010
0001
,
1100
0010
0110
1100
0001
0010
0100
1000
,
0011
0100
0010
0100
1001
0100
0010
0001
,
0110
1000
0100
1010
0001
1000
0110
1000
,
0012
0100
0010
0100
0010
0100
1003
0010
,
0101
1000
0010
0101
0000
1100
0110
0001
,
1001
0000
1010
0000
0011
1010
0110
1100
,
0011
0000
0000
1010
0011
0000
1010
0000
,
1001
0000
0100
0000
0011
0110
1100
0011
,
0101
0010
1000
0110
0110
0010
1001
0100
,
1001
0000
0100
0000
1001
0010
1100
0010
,
0101
0000
1000
0000
0110
0110
1000
0000
,
1001
0000
0100
0000
0011
1000
0100
1000
,
0012
0000
1000
0000
0100
0000
1000
0000
0100
0000
1000
0000
0100
0000
0103
1010
,
0101
1000
0110
0001
0010
0100
1001
0010
,
0100
0001
0110
1000
0010
0100
1001
0010
,
0100
0010
1001
0010
1000
0100
0011
1000
,
0100
0001
0110
1000
0001
0100
1010
0001
,
0100
0010
0101
1000
0010
0100
0011
1000
,
0100
1000
0011
1000
0100
0001
0110
1000
,
0001
0100
1010
0001
0010
0100
0101
1000
,
0100
1000
0011
0100
0010
0100
1001
0010
,
1000
0001
0110
1000
0001
0010
1001
0100
,
0010
0001
0110
1000
0010
1000
0110
0001
,
1000
0010
0101
1000
0100
1000
0011
1000
,
0100
0010
1100
0001
0010
0100
1010
0001
,
0100
1000
0011
0100
0010
1000
0110
0001
,
0100
0001
1010
0100
0001
0100
0011
1000
,
0101
0010
1100
0001
0100
0010
1010
0100
,
0001
0010
0100
1000
0001
0010
0100
1000
0001
0010
0100
1000
0001
0010
0100
1000
,
0001
0100
1010
0100
0001
1000
0011
0010
,
0100
0001
1010
0100
0010
1000
0011
0010
,
1000
0100
1100
0001
0100
0010
1001
0100
,
1001
0110
1001
0011
0000
0100
1010
0100
,
0011
0100
1010
0100
0011
1000
0110
0010
,
2001
0010
0001
3010
0210
0001
0010
0301
,
1002
0100
1000
0100
1000
0100
0010
0103
,
1010
0100
0011
0100
1001
0010
1100
0001
,
1010
0110
0001
1010
0110
0001
1010
0110
,
0011
1000
0110
0110
0001
1010
2002
0000
,
3003
0000
0000
0000
;

//---------------dance-single - ----------------
#NOTES:
     dance-single:
     :
     Medium:
     5:
     0.378,0.442,0.336,0.163,0.000,198.000,31.000,15.000,0.000,0.000:
0000
0000
0000
0000
,
0000
0000
0000
0000
,
0000
0000
0000
0000
,
0000
0000
0000
0000
,
0000
0000
0000
0000
,
0001
0100
0010
0100
,
0001
0001
1000
0100
,
0010
1000
0100
0010
,
1000
1000
0010
0100
,
0001
1000
0001
1000
,
0010
0010
0100
0001
,
1000
0010
0100
0001
,
1001
0000
0110
0000
,
1000
1000
0000
0010
,
0010
0010
0000
1000
,
0100
1000
0000
0010
,
0100
0010
0000
0001
,
0100
0001
0000
0010
,
0010
0010
0000
0100
,
0010
0100
0000
0001
,
0010
1000
0000
0100
,
0010
0100
0000
0010
,
0100
0001
0000
0010
,
0100
1000
0000
0001
,
0100
0001
0000
0010
,
0100
1000
0000
0010
,
0100
0010
0000
1000
,
0010
1000
0000
0100
,
0001
0010
0100
1000
,
2001
0001
3000
0001
,
1020
1030
0000
0100
,
0210
0310
0000
0001
,
2001
3001
0000
0010
,
2010
3010
0000
0001
,
1020
1030
0000
0100
,
0201
0301
0000
0010
,
0012
1000
1000
1003
,
1020
1000
1000
1030
,
0100
0001
1000
0010
,
0201
0001
0001
0301
,
0010
1000
0100
0010
,
0120
0100
0100
0100
,
0100
0130
1000
0001
,
1001
0000
0110
0000
,
1001
0000
0110
0000
,
1020
1000
1000
1030
,
0100
0010
0001
1000
,
0201
0001
0001
0301
,
0010
0100
0001
1000
,
0011
0000
1100
0000
,
0011
0000
1100
0000
,
0210
0010
0010
0310
,
0001
0001
0100
0100
,
1001
0010
0100
0001
,
1000
0100
0010
1000
,
1001
0100
0100
0010
,
0011
0000
0110
0000
,
1001
0100
0010
1000
,
0100
0001
0100
0010
,
1002
1000
1000
1000
,
0100
0100
0100
0103
,
0010
0100
0001
1000
,
0100
0010
0100
1001
;

//---------------dance-single - Copied from----------------
#NOTES:
     dance-single:
     Copied from:
     Easy:
     3:
     0.269,0.339,0.282,0.163,0.000,133.000,26.000,15.000,0.000,0.000:
0000
0000
0000
0000
,
0000
0000
0000
0000
,
0000
0000
0000
0000
,
0000
0000
0000
0000
,
0000
0000
0000
0000
,
1000
0000
0100
0000
,
1000
0000
0001
0000
,
0100
0000
0010
0000
,
0001
0000
0100
0000
,
1000
0000
1000
0000
,
0100
0000
0010
0000
,
0001
0000
0010
0000
,
1001
0000
0110
0000
,
0001
0001
0000
0100
,
0100
0100
0000
0001
,
0010
0001
0000
0100
,
0010
0100
0000
1000
,
0010
1000
0000
0100
,
0100
0100
0000
0010
,
0100
0010
0000
1000
,
0100
0001
0000
0010
,
0100
0010
0000
0100
,
0010
1000
0000
0100
,
0010
0001
0000
1000
,
0010
1000
0000
0100
,
0010
0001
0000
0100
,
0010
0100
0000
0001
,
0100
0001
0000
0010
,
1000
0100
0010
0001
,
1002
0000
1003
0000
,
0201
0300
0001
0000
,
0120
0030
0100
0000
,
1002
0003
1000
0000
,
0102
0003
0100
0000
,
0201
0300
0001
0000
,
1020
0030
1000
0000
,
2100
0000
0001
3000
,
0201
0000
0001
0300
,
0010
0000
0001
0000
,
1020
0000
1000
0030
,
0100
0000
0010
0000
,
0210
0000
0010
0000
,
0010
0300
0001
0000
,
1001
0000
0010
0000
,
1001
0000
0010
0000
,
0201
0000
0001
0300
,
0010
0000
1000
0000
,
1020
0000
1000
0030
,
0100
0000
1000
0000
,
1100
0000
0010
0000
,
1100
0000
0001
0000
,
0120
0000
0100
0030
,
1000
0000
0010
0000
,
1001
0000
0010
0000
,
0001
0000
0100
0000
,
1001
0000
0010
0000
,
1100
0000
0100
0000
,
1001
0000
0100
0000
,
0010
0000
0010
0000
,
2001
0000
0001
0000
,
0010
0000
0010
3000
,
0100
0000
1000
0000
,
0010
0000
1001
0000
;

//---------------dance-single - Copied from Copied f----------------
#NOTES:
     dance-single:
     Copied from Copied f:
     Beginner:
     2:
     0.173,0.237,0.054,0.163,0.000,92.000,5.000,15.000,0.000,0.000:
0000
0000
0000
0000
,
0000
0000
0000
0000
,
0000
0000
0000
0000
,
0000
0000
0000
0000
,
0000
0000
0000
0000
,
0100
0000
0000
0000
,
0100
0000
0000
0000
,
0010
0000
0000
0000
,
0001
0000
0000
0000
,
0100
0000
0000
0000
,
0010
0000
0000
0000
,
0001
0000
0000
0000
,
0101
0000
1000
0000
,
0001
0000
0000
0000
,
0010
0000
0000
0000
,
1000
0000
0000
0000
,
1000
0000
0000
0000
,
1000
0000
0000
0000
,
0010
0000
0000
0000
,
0010
0000
0000
0000
,
0010
0000
0000
0000
,
0010
0000
0000
0000
,
1000
0000
0000
0000
,
1000
0000
0000
0000
,
1000
0000
0000
0000
,
1000
0000
0000
0000
,
1000
0000
0000
0000
,
0010
0000
0000
0000
,
0100
0000
1000
0000
,
0002
0000
0103
0000
,
0020
0030
0001
0000
,
2000
3000
0010
0000
,
0002
0003
0100
0000
,
0002
0003
0010
0000
,
0020
0030
0001
0000
,
2000
3000
0100
0000
,
0200
0000
0001
0300
,
0020
0000
0001
0030
,
1000
0000
0001
0000
,
2000
0000
0100
3000
,
0010
0000
1000
0000
,
0020
0000
1000
0000
,
1000
0030
0001
0000
,
0101
0000
0000
0000
,
0100
0000
1000
0000
,
0020
0000
0001
0030
,
1000
0000
0100
0000
,
2000
0000
0100
3000
,
0010
0000
0100
0000
,
0110
0000
0000
0000
,
0100
0000
0001
0000
,
2000
0000
0010
3000
,
0100
0000
1000
0000
,
0001
0000
1000
0000
,
0001
0000
0010
0000
,
0100
0000
1000
0000
,
0010
0000
0010
0000
,
0100
0000
0010
0000
,
1000
0000
1000
0000
,
0201
0000
0001
0000
,
0001
0000
0001
0300
,
0010
0000
0100
0000
,
1000
0000
0101
0000
;
